<?xml version="1.0" standalone="no"?>
<!DOCTYPE svg PUBLIC "-//W3C//DTD SVG 1.1//EN" "http://www.w3.org/Graphics/SVG/1.1/DTD/svg11.dtd" >
<svg xmlns="http://www.w3.org/2000/svg">
<defs>
  <font id="vapp" horiz-adv-x="256">
    <font-face font-family="vapp"
      units-per-em="256" ascent="256"
      descent="0" />
    <missing-glyph horiz-adv-x="0" />
    <glyph glyph-name="app"
      unicode="&#xEA01;"
      horiz-adv-x="256" d="M72.504 228.464L15.744 212.024L11.992 210.92V53.2L14.744 52.232C16.256 51.696 42.352 42.384 72.744 31.52L128 11.776L183.248 31.52C213.64 42.384 239.736 51.696 241.248 52.232L244 53.192V210.912L237.248 212.888C192.56 225.976 128.72 243.976 127.304 243.904C126.312 243.848 101.648 236.896 72.504 228.464M170.28 223.944C224.784 208.384 226.272 207.944 225.76 207.424C225.52 207.184 203.424 199.16 176.664 189.592L128 172.192L79.336 189.6C52.576 199.16 30.48 207.2 30.24 207.44C30 207.68 31.536 208.384 33.656 209.016C44.088 212.12 126.6 235.816 127.28 235.904C127.704 235.96 147.056 230.584 170.28 223.952M72.496 183.648L123.504 165.392L123.76 93.696C123.896 54.264 123.68 22.016 123.256 22.04C122.84 22.072 99.552 30.304 71.496 40.344L20.504 58.608L20.24 130.304C20.104 169.736 20.32 201.984 20.744 201.952C21.16 201.928 44.448 193.696 72.504 183.648M235.76 130.304L235.504 58.608L184.504 40.344C156.448 30.304 133.16 22.072 132.744 22.04C132.328 22.016 132.104 54.264 132.24 93.696L132.496 165.392L183.496 183.648C211.552 193.696 234.84 201.928 235.256 201.952C235.672 201.976 235.896 169.736 235.76 130.304" />
    <glyph glyph-name="apple"
      unicode="&#xEA02;"
      horiz-adv-x="256" d="M229.32 68.12C223.784 55.848 221.136 50.376 214 39.528C204.056 24.392 190.032 5.528 172.648 5.368C157.208 5.224 153.24 15.416 132.28 15.296S106.952 5.192 91.512 5.336C74.136 5.488 60.856 22.52 50.904 37.672C23.08 80.016 20.176 129.704 37.336 156.12C49.528 174.904 68.768 185.88 86.856 185.88C105.272 185.88 116.848 175.784 132.08 175.784C146.856 175.784 155.848 185.896 177.144 185.896C193.24 185.896 210.296 177.136 222.456 161.992C182.632 140.176 189.104 83.328 229.32 68.12zM163.24 212.4C170.976 222.336 176.84 236.344 174.712 250.672C162.072 249.808 147.296 241.768 138.664 231.288C130.832 221.776 124.36 207.672 126.88 193.96C140.664 193.528 154.944 201.768 163.24 212.4z" />
    <glyph glyph-name="chart-bar-33"
      unicode="&#xEA03;"
      horiz-adv-x="256" d="M156 244V240H206.496L167.256 200.752L128 161.52L108 181.496L88 201.496L62.392 175.896L36.792 150.296L39.992 148.008L43.2 145.728L65.6 168.112L88 190.48L108 170.496L128 150.512L170 192.504L212 234.48V184H220V248H156V244M188 84V8H252V160H188V84M244 84V16H196V152H244V84M96 60V8H160V112H96V60M152 60V16H104V104H152V60M4 36V8H68V64H4V36M60 36V16H12V56H60V36" />
    <glyph glyph-name="chat-46"
      unicode="&#xEA04;"
      horiz-adv-x="256" d="M5.456 249.752C5.2 249.064 5.096 215.432 5.24 175L5.496 101.496L26.736 101.232L47.968 100.96L48.232 72.144L48.504 43.32L88.912 72.16L129.328 101H208V197H240V69H197V50.504C197 40.328 196.768 32 196.488 32S183.504 40.32 168.248 50.504L140.504 69H112V59H136.504L171.744 35.504C191.128 22.576 207.216 12 207.496 12C207.768 12 208 22.576 208 35.504V59H251V208H208V251H106.968C27.064 251 5.84 250.736 5.456 249.752M197.008 176V112H126.344L92.928 88.16L59.504 64.328L59.24 88.168L58.96 112H16V240H197V176" />
    <glyph glyph-name="code-editor"
      unicode="&#xEA05;"
      horiz-adv-x="256" d="M5 128V16H251V240H5V128M80 128V27H16V229H80V128M240 128V27H91V229H240V128M37 192V187H59V197H37V192M117 192V187H149V197H117V192M37 160V155H59V165H37V160M139 160V155H176V165H139V160M37 128V123H59V133H37V128M149 128V123H213V133H149V128M37 96V91H59V101H37V96M139 96V91H176V101H139V96M117 64V59H149V69H117V64" />
    <glyph glyph-name="credit-locked"
      unicode="&#xEA06;"
      horiz-adv-x="256" d="M21.504 250.08C13.88 248.216 7.696 241.68 6.064 233.792C5.272 230.008 5.024 206.944 5.216 156.944C5.48 89.464 5.6 85.312 7.36 82.008C9.776 77.48 13.728 73.256 17.496 71.168C20.152 69.704 25.848 69.472 66.248 69.208L112 68.912V80H23.032L19.768 82.92L16.496 85.832L16.216 120.416L15.928 155H240V107H251V167.952C251 208.768 250.632 230.608 249.888 234.064A19.104 19.104 0 0 1 245.216 243.184C238.04 251.12 248.016 250.48 130 250.664C71.976 250.744 23.152 250.48 21.496 250.08M237.08 236.224C239.976 232.992 240 232.864 240 220.48V208H16V220.368C16 231.488 16.216 233.008 18.136 235.448C19.312 236.944 21.224 238.552 22.392 239.024C23.552 239.504 71.672 239.8 129.328 239.696L234.16 239.496L237.08 236.232M240 181V165H16V197H240V181M170.464 130.632C164.52 127.864 157.448 120.272 156.016 115.12C155.464 113.128 155.008 106.904 155.008 101.28L155 91.064L144.248 90.784L133.504 90.496V5.496L181.248 5.24L229 4.984V91H208V100.96C208 108.464 207.512 112.24 206 116.256C200.776 130.224 184.08 136.976 170.464 130.632M48 117.496V112H112V123H48V117.496M189.496 120.072C191.144 119.152 193.504 116.888 194.744 115.048C196.72 112.112 197 110.44 197 101.352V91H165L165.024 98.752C165.056 109.424 166.248 113.712 170.304 117.76C175.536 123.008 182.728 123.872 189.504 120.08M218.992 48V16H144V80H219V48M176 48V37H187V59H176V48" />
    <glyph glyph-name="delivery-fast"
      unicode="&#xEA07;"
      horiz-adv-x="256" d="M5 213.496V208H69V219H5V213.496M91 144V69H133.76L134.92 64.408C136.92 56.48 142.728 48.704 150.52 43.528C160.76 36.736 174.728 35.688 186.392 40.848C195.128 44.712 203.624 54.632 206.472 64.288L207.72 68.496L229.112 69L250.504 69.504V142.504L234.056 148.08L217.608 153.664L206.728 186.328L195.8319999999999 219H91V144M198.728 176.312L209.128 145.12L224.568 139.976L240 134.832V79.952L223.856 80.224L207.704 80.496L206.288 85.376C199.808 107.616 173.4 118.36 152.664 107.192C146.04 103.624 138.608 95.232 136.072 88.456C134.928 85.416 134 82.264 134 81.464C134 80.24 131.312 80 117.496 80H101V208.024L144.664 207.76L188.336 207.496L198.736 176.312M133.664 186.336C133.304 185.968 133 176.288 133 164.832V144H176V155H144V187H139.168C136.512 187 134.032 186.696 133.664 186.336M27 170.496V165H69V176H27V170.496M48 128V123H69V133H48V128M181 98.92C202.576 89.16 202.104 58.168 180.256 49.992A26.384 26.384 0 0 0 145.416 82.376C149.736 97.208 167.016 105.2480000000001 181 98.9200000000001" />
    <glyph glyph-name="favourite-31"
      unicode="&#xEA08;"
      horiz-adv-x="256" d="M132.784 240.056L167.56 169.592L245.304 158.296C249.68 157.656 251.432 152.28 248.264 149.192L192 94.36L205.28 16.92A5.336 5.336 0 0 0 197.544 11.304L128 47.856L58.448 11.296A5.328 5.328 0 0 0 50.712 16.904L64 94.36L7.736 149.2A5.336 5.336 0 0 0 10.696 158.304L88.44 169.6L123.216 240.064A5.336 5.336 0 0 0 132.784 240.064z" />
    <glyph glyph-name="heart-2-2"
      unicode="&#xEA09;"
      horiz-adv-x="256" d="M59.872 238.56C46.04 235.664 30.8 226.256 21.2 214.68C10.72 202.08 5.776 188.28 5.712 171.52C5.656 158.424 7.176 151.552 12.688 140.008L17.216 130.504L72.608 75.008L128 19.496L183.392 75L238.784 130.504L243.312 140C248.824 151.544 250.344 158.416 250.288 171.52C250.208 193.28 241.504 211.008 224 225.096C210.76 235.76 194.656 240.752 177 239.656C159.256 238.576 145.904 232.592 132.248 219.624L128 215.584L123.752 219.624C114.584 228.32 104.88 234.136 94 237.44C86.456 239.728 68.312 240.32 59.872 238.552M88.76 227.488C101.88 224.392 114.784 215.488 122.648 204.088C125.32 200.224 127.728 197.056 128 197.056C128.272 197.056 130.68 200.224 133.36 204.096C141.328 215.656 154.128 224.408 167.752 227.608C177.512 229.896 192.312 229.056 201.376 225.696C217.928 219.56 232.136 204.952 237.08 188.992C241.688 174.128 240.584 159.128 233.832 144.992C229.7920000000001 136.536 229.5120000000001 136.24 178.888 85.488L128 34.496L77.12 85.496C26.48 136.248 26.208 136.536 22.168 145C5.384 180.152 25.008 219.704 63.504 228.32C68.104 229.352 82.944 228.864 88.76 227.496" />
    <glyph glyph-name="heart-2"
      unicode="&#xEA0A;"
      horiz-adv-x="256" d="M230.36 219.688C203.328 246.72 159.336 246.72 132.304 219.688A68.64 68.64 0 0 1 128 214.96A67.456 67.456 0 0 1 123.688 219.696C96.664 246.728 52.672 246.728 25.64 219.696S-1.392 148.68 25.64 121.64L124.224 23.056A5.32 5.32 0 0 1 131.768 23.056L230.352 121.64C257.392 148.672 257.392 192.664 230.352 219.688z" />
    <glyph glyph-name="ic_android_48px"
      unicode="&#xEA0B;"
      horiz-adv-x="256" d="M64 64C64 58.136 68.8 53.336 74.664 53.336H85.336V16C85.336 7.144 92.48 0 101.336 0S117.336 7.144 117.336 16V53.336H138.664V16C138.664 7.144 145.816 0 154.664 0S170.664 7.144 170.664 16V53.336H181.336C187.2 53.336 192 58.136 192 64V170.664H64V64zM37.336 170.664C28.48 170.664 21.336 163.52 21.336 154.664V80C21.336 71.144 28.48 64 37.336 64S53.336 71.144 53.336 80V154.664C53.336 163.52 46.184 170.664 37.336 170.664zM218.664 170.664C209.816 170.664 202.664 163.52 202.664 154.664V80C202.664 71.144 209.816 64 218.664 64S234.664 71.144 234.664 80V154.664C234.664 163.52 227.52 170.664 218.664 170.664zM165.656 232.96L179.576 246.88A5.312 5.312 0 1 1 172.056 254.4L156.264 238.664A63.57599999999999 63.57599999999999 0 0 1 128 245.336C117.76 245.336 108.16 242.88 99.576 238.616L83.736 254.456A5.312 5.312 0 1 1 76.216 246.936L90.184 232.96A64.08 64.08 0 0 1 64 181.336H192C192 202.56 181.6 221.336 165.656 232.96zM106.664 202.664H96V213.336H106.664V202.664zM160 202.664H149.336V213.336H160V202.664z" />
    <glyph glyph-name="layers-3-2"
      unicode="&#xEA0C;"
      horiz-adv-x="256" d="M72.504 218.36C42.8 200.52 16.8 184.88 14.744 183.624L10.984 181.328L69.464 146.2L127.944 111.064L186.48 146.184L245.008 181.304L186.928 216.144C154.976 235.32 128.304 250.96 127.672 250.904C127.032 250.848 102.2 236.2 72.504 218.36M174.344 211.336A7299.856000000002 7299.856000000002 0 0 0 222.264 182.48C223.784 181.456 217.4 177.328 176.008 152.504L128 123.72L79.936 152.536C48.4 171.448 32.336 181.616 33.192 182.136C33.912 182.56 55.432 195.512 81 210.912C106.576 226.312 127.656 238.936 127.84 238.96C128.024 238.984 148.952 226.552 174.336 211.336M26.496 137.464C18.8 132.816 12.376 128.624 12.224 128.16C12.064 127.696 38.056 111.656 69.968 92.52L128 57.72L186 92.496C217.904 111.632 244 127.616 244 128.008C244 128.408 237.92 132.376 230.48 136.824L216.976 144.92L214.488 140.976C213.12 138.816 212 136.6 212 136.056C212 135.52 214.696 133.6 217.984 131.792C221.28 129.976 223.968 128.272 223.952 128C223.944 127.728 202.352 114.584 175.968 98.8L128 70.096L79.888 98.968L31.776 127.832L35.64 130.256C37.76 131.5920000000001 40.4 133.192 41.496 133.8080000000001C46.496 136.6160000000001 46.472 136.5200000000001 43.608 141.408C42.128 143.928 40.824 145.984 40.712 145.968C40.592 145.936 34.2 142.112 26.504 137.464M212.52 88.448C211.136 86.08 210 83.936 210 83.6880000000001C210 83.4320000000001 213.192 81.336 217.088 79.0160000000001C223.472 75.2240000000001 223.992 74.6880000000001 222.336 73.568C221.328 72.888 199.688 59.8560000000001 174.256 44.608L128 16.896L81.752 44.608A7124.032 7124.032 0 0 0 33.664 73.568C32.008 74.688 32.528 75.224 38.912 79.016C42.808 81.336 46 83.424 46 83.664C46 84.8 41.4 91.984 40.672 91.992C40.216 91.992 33.344 88.112 25.408 83.352L10.96 74.72L69.056 39.864C101.008 20.696 127.536 5.008 127.992 5.008C128.456 5.008 154.968 20.688 186.912 39.856L244.992 74.704L230.016 83.736L215.04 92.768L212.512 88.456" />
    <glyph glyph-name="layers-3"
      unicode="&#xEA0D;"
      horiz-adv-x="256" d="M67.752 214.224C35.432 195.72 9 180.32 9 180C9 179.248 126.68 112 128 112C129.312 112 247 179.248 247 180C247 180.88 129.184 248.008 127.752 247.936C127.064 247.904 100.064 232.736 67.752 214.224M180.336 209.544C208.2 193.616 231 180.32 231 180C231 179.024 129.72 121.496 128 121.496C126.288 121.496 25 179.024 25 179.992C25 181.08 126.496 238.856 128.088 238.68C128.968 238.5840000000001 152.472 225.4720000000001 180.336 209.5440000000001M23.248 136.76C15.408 132.264 9 128.32 9 128C9 127.248 126.68 60 128 60C129.32 60 247 127.248 247 128C247 128.608 218.696 145 217.648 145C217.088 145 214 139.624 214 138.64C214 138.392 217.824 136.04 222.504 133.416C227.176 130.792 231 128.368 231 128.032C231 127.04 129.744 69.504 128 69.504C126.256 69.504 25 127.04 25 128.032C25 128.368 28.824 130.792 33.504 133.416C38.176 136.04 42 138.392 42 138.64C42 139.76 38.88 145 38.224 144.968C37.824 144.952 31.088 141.264 23.248 136.76M23.248 84.76C15.408 80.264 9 76.32 9 76.008C9 75.248 126.68 8 128 8C129.32 8 247 75.248 247 76C247 76.608 218.696 93 217.648 93C217.088 93 214 87.624 214 86.64C214 86.392 217.824 84.04 222.504 81.416C227.176 78.792 231 76.368 231 76.032C231 75.032 129.744 17.496 128 17.496C126.256 17.496 25 75.032 25 76.032C25 76.368 28.824 78.792 33.504 81.416C38.176 84.04 42 86.392 42 86.64C42 87.76 38.88 93 38.224 92.968C37.824 92.96 31.088 89.264 23.248 84.76" />
    <glyph glyph-name="minimal-left"
      unicode="&#xEA0E;"
      horiz-adv-x="256" d="M124.48 184.984L67.504 128L124.48 71.016L181.456 14.04L185.248 17.744L189.048 21.448L135.7760000000001 74.728L82.504 128L135.776 181.28L189.048 234.552L185.248 238.256L181.456 241.96L124.48 184.984" />
    <glyph glyph-name="minimal-right"
      unicode="&#xEA0F;"
      horiz-adv-x="256" d="M70.736 238.272L66.984 234.52L120.24 181.256L173.496 128L120.224 74.72L66.952 21.448L70.752 17.744L74.544 14.04L131.5200000000001 71.016L188.496 128L131.488 185.008L74.48 242.016L70.736 238.264" />
    <glyph glyph-name="money-time"
      unicode="&#xEA10;"
      horiz-adv-x="256" d="M104.512 249.96C86.552 247.92 65.096 239.256 50.192 228.024C10.256 197.92 -4.888 144.88 13.064 98C28.52 57.616 67.864 29.28 111.248 27.272L123 26.728V36.6L110.248 37.8C92.208 39.52 79.288 43.48 66.168 51.3279999999999A102.10400000000001 102.10400000000001 0 0 0 26.968 93.504C-3.368 154.592 33.384 226.704 100.888 238.536C143.696 246.032 188.128 223.36 207.8 184L212.616 174.36L217.016 176.232C219.448 177.264 221.576 178.256 221.768 178.44C222.5200000000001 179.2 215.784 192.512 210.704 200.304C198.136 219.584 179.2400000000001 234.784 156.9680000000001 243.504C142.5840000000001 249.144 120.8560000000001 251.824 104.5040000000001 249.96M112 170.504V144H59V132.976L90.752 133.232L122.504 133.504L122.76 165.248L123.032 197H112V170.496M189.504 154.4C176.144 152.632 170.488 151.416 163.856 148.864C155.288 145.584 147.512 139.464 145.36 134.328C144.272 131.72 144 120.848 144 80S144.272 28.28 145.36 25.68C148.744 17.568 162.8 9.728 179 6.912C189.184 5.144 208.632 5.416 218.504 7.472C228.616 9.568 241.744 15.808 245.808 20.432C247.504 22.368 249.36 25.648 249.944 27.72C251.368 32.872 251.368 127.136 249.944 132.28C249.36 134.36 247.504 137.6400000000001 245.808 139.56C241.776 144.1520000000001 228.568 150.456 219 152.36C211.08 153.928 194.56 155.0800000000001 189.496 154.4M212 142.936C226.16 140.648 238.288 134.696 239.624 129.3680000000001C241.664 121.2240000000001 224 113.304 201.504 112.28C171.888 110.92 146.784 122.936 157.744 133.2000000000001C166.824 141.6880000000001 191.88 146.184 212 142.936M176.8 103.328C187.304 101.2000000000001 208.144 101.272 218.456 103.472A85.12 85.12 0 0 1 232.8400000000001 108.08C236.3840000000001 109.68 239.4400000000001 111 239.6400000000001 111C239.8400000000001 111 240.0000000000001 107.24 240.0000000000001 102.632C240.0000000000001 92.656 238.7040000000001 90.424 230.7200000000001 86.656C209.6240000000001 76.6880000000001 171.6960000000001 78.552 158.4160000000001 90.208C155.0160000000001 93.192 155.0000000000001 93.248 155.0000000000001 102.008V110.8080000000001L162.0400000000001 107.848C165.9200000000001 106.216 172.5520000000001 104.1840000000001 176.7920000000001 103.328M176.7920000000001 71.328C187.3040000000001 69.2000000000001 208.1440000000001 69.272 218.4560000000001 71.472A85.12 85.12 0 0 1 232.8400000000001 76.08C236.3840000000001 77.68 239.4400000000001 79 239.6400000000001 79C239.8400000000001 79 240.0000000000001 75.24 240.0000000000001 70.632C240.0000000000001 60.656 238.7040000000001 58.424 230.7200000000001 54.656C209.6240000000001 44.688 171.6960000000001 46.552 158.4160000000001 58.208C155.0160000000001 61.192 155.0000000000001 61.248 155.0000000000001 70.008V78.8080000000001L162.0400000000001 75.848C165.9200000000001 74.216 172.5520000000001 72.1840000000001 176.7920000000001 71.328M176.7920000000001 39.328C187.3040000000001 37.2 208.1440000000001 37.272 218.4560000000001 39.472A85.12 85.12 0 0 1 232.8400000000002 44.08C236.3840000000002 45.68 239.4400000000002 47 239.6400000000002 47C239.8400000000002 47 240.0000000000002 43.24 240.0000000000002 38.632C240.0000000000002 28.656 238.7040000000002 26.424 230.7200000000002 22.656C209.6240000000002 12.688 171.6960000000002 14.552 158.4160000000002 26.208C155.0160000000002 29.192 155.0000000000002 29.248 155.0000000000002 38.008V46.8080000000001L162.0400000000002 43.848C165.9200000000002 42.216 172.5520000000002 40.1840000000001 176.7920000000002 39.328" />
    <glyph glyph-name="p-heart"
      unicode="&#xEA11;"
      horiz-adv-x="256" d="M30.904 249.68C28.48 248.4 25.144 245.432 23.504 243.088L20.496 238.832V17.168L23.504 12.912C25.152 10.568 28.48 7.608 30.904 6.328L35.312 4H164V11.96L99.52 12.232L35.04 12.504L31.768 15.768L28.496 19.032L28.2 43.512L27.904 68H120V76H28V196H188V128H196.048L195.776 183.416L195.496 238.832L192.496 243.088A25.264 25.264 0 0 1 185.096 249.672L180.688 252H35.312L30.912 249.68M184.232 240.24L187.504 236.96L187.824 220.48L188.136 204H27.864L28.184 220.424C28.488 236.344 28.576 236.928 31 239.536C32.376 241.008 34.4 242.6 35.504 243.056C36.6 243.52 69.776 243.808 109.232 243.696L180.96 243.504L184.232 240.232M96 224V220H120V228H96V224M161.224 106.528C148.208 102.464 138.984 88.2 140.256 74.112C141.2 63.664 143.072 61.04 167.968 35.136C180.736 21.856 191.544 11 191.984 11C192.432 11 203.12 21.736 215.744 34.864C242.248 62.424 243.504 64.304 243.504 76.496C243.504 83.024 243.024 85.512 240.912 90C232.632 107.56 211.632 113.208 196.192 102.016L192 98.984L187.84 102C180.176 107.552 170.024 109.28 161.2239999999999 106.528M175.904 99.024C180.904 97.592 185.352 94.2 188.6159999999999 89.344C190.1999999999999 86.976 191.7279999999999 85.04 191.9999999999999 85.04C192.2719999999999 85.04 193.8239999999999 87.016 195.4399999999999 89.416C200.6479999999999 97.192 209.7599999999999 101.208 218.4719999999999 99.576C223.2799999999999 98.672 230.016 93.28 232.9839999999999 87.952C236.1679999999999 82.24 236.456 72.432 233.616 66.704C231.832 63.112 193.5919999999999 22.496 192 22.496C190.352 22.496 152.1519999999999 63.16 150.464 66.704C147.8 72.32 147.424 79.2 149.496 84.624C153.976 96.352 164.744 102.224 175.904 99.024" />
    <glyph glyph-name="p-system-update"
      unicode="&#xEA12;"
      horiz-adv-x="256" d="M38.904 249.68C36.48 248.4 33.144 245.432 31.496 243.088L28.504 238.832V17.168L31.496 12.912C33.152 10.568 36.48 7.608 38.904 6.328L43.312 4H168V11.96L105.52 12.232L43.04 12.504L39.768 15.768L36.496 19.032L36.2 43.512L35.904 68H140V76H36V196H196V136H204.056L203.776 187.416L203.496 238.832L200.496 243.088A25.264 25.264 0 0 1 193.096 249.672L188.688 252H43.312L38.912 249.68M192.232 240.24L195.504 236.96L195.824 220.48L196.136 204H35.864L36.184 220.424C36.488 236.344 36.576 236.928 39 239.536C40.376 241.008 42.4 242.6 43.504 243.056C44.6 243.52 77.776 243.808 117.232 243.696L188.96 243.504L192.232 240.232M104 224V220H128V228H104V224M196 68.76V21.52L178 39.496L160.016 57.464L157.272 54.72L154.528 51.984L177.264 29.24L200 6.504L222.736 29.24L245.472 51.984L242.728 54.72L239.984 57.464L221.992 39.496L204 21.52V116H196V68.76" />
    <glyph glyph-name="responsive"
      unicode="&#xEA13;"
      horiz-adv-x="256" d="M122.12 243.368C118.208 240.632 117 236.056 117 224.032V213H5V48H36.856L37.176 32.416L37.496 16.832L40.768 13.912L44.032 11H99.968L103.232 13.92L106.504 16.832L106.824 32.416L107.144 48H251V213H219V224.032C219 236.056 217.792 240.632 213.88 243.368C211.816 244.816 206.648 245 168 245S124.184 244.816 122.12 243.368M208 187V139H128V235H208V187M117 170.464C117 134.608 117.312 132.44 122.872 129.568C127.424 127.216 208.584 127.216 213.128 129.568C218.688 132.448 219 134.608 219 170.464V203H240V59H107.112L106.808 79.48L106.496 99.96L103.232 103.24L99.96 106.496H44.04L40.768 103.232L37.496 99.968L37.192 79.488L36.888 59H16V203H117V170.464M155 160V155H181V165H155V160M96 58.496V21H48V96H96V58.496M64 42.496V37H80V48H64V42.496M117 26.496V21H160V32H117V26.496" />
    <glyph glyph-name="send"
      unicode="&#xEA14;"
      horiz-adv-x="256" d="M14 156L62.4 120.8L129.6 157.2C131.6 158.4 133.6 155.6 132 154L76 108V30.4C76 26.8 80.4 24.8 82.8 27.6L124 74L198 20C200.4 18.4 203.6 19.6 204.4 22.4L244.4 238.4C244.8 241.6 242 244 239.2 242.8L15.2 162.8C12 161.6 11.6 157.6 14 156z" />
    <glyph glyph-name="storage"
      unicode="&#xEA15;"
      horiz-adv-x="256" d="M5 128V16H16V37H240V16H251V240H5V128M123 202.504V176H16V229H123V202.496M240 202.496V176H133V229H240V202.496M53 202.496V197H85V208H53V202.496M171 202.472V196.952L186.752 197.224L202.496 197.504L202.8 202.752L203.104 208H171V202.48M123 138.504V112H16V165H123V138.496M240 138.496V112H133V165H240V138.496M53 138.496V133H85V144H53V138.496M171 138.472V132.952L186.752 133.224L202.496 133.496L202.8 138.752L203.104 144H171V138.48M123 74.496V48H16V101H123V74.496M240 74.496V48H133V101H240V74.496M53 74.496V69H85V80H53V74.496M171 74.472V68.952L186.752 69.224L202.496 69.504L202.8 74.752L203.104 80H171V74.48" />
    <glyph glyph-name="stre-right"
      unicode="&#xEA16;"
      horiz-adv-x="256" d="M87.656 244.416C85.472 242.928 84.064 241.264 84.36 240.512C84.64 239.784 101.544 214.168 121.936 183.592L159.008 128L121.936 72.4C101.544 41.824 84.632 16.208 84.352 15.472C83.872 14.24 91.552 8.152 92.384 9.104C95.752 12.968 171.024 127.552 170.808 128.48C170.432 130.096 92.704 246.9360000000001 91.984 246.976C91.696 246.992 89.752 245.84 87.664 244.4160000000001" />
    <glyph glyph-name="tail-left"
      unicode="&#xEA17;"
      horiz-adv-x="256" d="M45 166.496L6.504 128L45.24 89.264L83.976 50.528L86.728 53.272L89.472 56.016L55.488 90.016L21.52 124H244V132H21.512L55.464 165.96L89.416 199.928L87.032 202.464C85.728 203.856 84.392 205 84.072 205C83.752 205 66.168 187.672 45 166.496" />
    <glyph glyph-name="tail-right"
      unicode="&#xEA18;"
      horiz-adv-x="256" d="M168.96 202.464L166.584 199.928L200.536 165.968L234.488 132H12V124H234.488L200.512 90.008L166.528 56.016L169.272 53.272L172.024 50.528L210.76 89.264L249.496 128L211 166.496C189.832 187.672 172.248 205 171.928 205C171.608 205 170.28 203.856 168.968 202.464" />
    <glyph glyph-name="touch-id"
      unicode="&#xEA19;"
      horiz-adv-x="256" d="M109.016 250.488C97.496 248.28 84.584 244.328 76.152 240.44C68.888 237.08 54.032 228.072 54.016 227C54.016 226.728 55.04 225.208 56.304 223.64L58.592 220.776L66.224 225.76C78.944 234.056 93.248 239.376 111.48 242.584C135.904 246.88 168.36 240.04 189.304 226.184L193.2400000000001 223.576L195.744 226.488L198.2400000000001 229.392L195.5440000000001 231.552C187.3680000000001 238.064 166.7120000000001 246.552 151.6400000000001 249.576C140.888 251.736 118.0480000000001 252.224 109.0160000000001 250.488M132.0000000000001 218.008C132.0000000000001 214.384 132.2400000000001 214 134.5440000000001 214C135.9360000000001 214 140.5520000000001 213.288 144.7920000000001 212.416C175.4240000000001 206.144 200.7280000000001 183.32 209.8560000000001 153.736C215.1600000000001 136.544 217.7360000000001 108.376 216.0160000000001 86.272C214.9680000000001 72.696 212.4080000000001 56.32 210.0640000000001 48.2C209.2000000000001 45.2 209.3360000000001 44.824 211.6240000000001 43.96C217.2240000000001 41.824 217.6080000000001 42.552 221.1200000000001 61.968C224.2640000000001 79.328 225.3760000000001 99.008 224.1200000000001 115.272C221.0320000000001 155.288 212.9200000000001 176.344 193.3600000000001 195.072C177.2240000000001 210.512 160.7600000000001 218.12 136.2480000000001 221.448L132.0000000000001 222.024V218.008M97.1600000000001 216.448C83.4400000000001 211.776 73.6640000000001 205.728 62.8000000000001 195.208C40.1360000000001 173.256 30.5920000000001 144.136 35.4640000000001 111.864C36.9280000000001 102.192 37.0160000000001 99.384 36.0000000000001 94.504C34.3360000000001 86.496 32.0000000000001 81.416 27.1360000000001 75.28C24.8640000000001 72.408 23.0000000000001 69.68 23.0000000000001 69.2C23.0000000000001 68.736 24.0640000000001 67.352 25.3680000000001 66.128L27.7280000000001 63.904L32.1280000000001 68.792C37.7120000000001 75.008 41.7280000000001 83.208 43.6560000000001 92.336C45.0400000000001 98.8560000000001 45.0160000000001 100.64 43.4400000000001 112.2720000000001C40.5360000000001 133.6800000000001 42.6720000000001 149.4 50.6400000000001 165.3200000000001C61.5200000000001 187.0400000000001 79.2000000000001 202.4400000000001 101.4960000000001 209.5760000000001C108.1840000000001 211.7200000000001 108.4800000000001 211.9440000000001 108.1520000000001 214.6560000000001C107.5040000000001 219.9040000000001 107.3760000000001 219.9280000000001 97.1600000000001 216.448M213.5760000000001 212.0720000000001L210.7200000000001 209.1040000000001L215.4880000000001 203.8000000000001C222.3120000000001 196.2240000000001 227.6080000000001 188.0960000000001 232.5600000000001 177.6240000000001C238.6080000000001 164.8480000000001 241.7440000000001 153.1200000000001 243.1920000000001 137.96L244.4240000000001 125.0000000000001H252.0000000000001V130.9040000000001C252.0000000000001 139.7600000000001 248.5200000000001 158.3520000000001 244.9680000000001 168.5040000000001C239.4640000000001 184.2080000000001 231.9440000000001 197.0640000000001 220.4640000000001 210.3680000000001L216.4240000000001 215.0480000000001L213.5680000000001 212.0720000000001M31.2480000000001 205.2480000000001C10.48 180.176 0.488 143.528 5.464 110.608C6.424 104.208 7.504 98.824 7.864 98.64C9.16 97.936 15 100.104 14.984 101.28A182.592 182.592 0 0 1 13.488 111.504C8.544 141.576 17.2 174.136 36.816 199.264L41.32 205.024L38.984 207.52C37.704 208.88 36.32 210 35.92 210C35.52 210 33.416 207.864 31.248 205.248M118.496 191.304C107.136 189.792 93.88 183.392 84.776 175.024L78.544 169.296L81.504 166.76L84.448 164.216L89.312 168.592C101.744 179.768 115.448 184.592 132.464 183.752C144.512 183.16 151.368 180.832 159.912 174.408C172.264 165.12 180.856 149.92 183.92 131.92C190.024 96.064 185.64 59.296 171.384 26.88C169.52 22.64 168 18.76 168 18.248C168 17.328 172.28 15 173.976 15C175.096 15 179.2880000000001 24.144 183.0560000000001 34.824A200.528 200.528 0 0 1 191.488 135.432C186.688 162.896 166.488 186.112 143.2000000000001 190.912C138.1600000000001 191.952 124.9440000000001 192.16 118.5040000000001 191.304M119.0000000000001 160.632C107.0720000000001 157.16 99.0640000000001 149.128 94.9920000000001 136.544C93.9440000000001 133.312 93.952 129.632 95.0320000000001 116.592C97.9600000000001 81.344 90.5440000000001 56.416 70.2320000000001 33.176L64.6960000000001 26.848L67.3200000000001 24.224L69.9440000000001 21.6L72.616 24.048C74.08 25.4 77.8640000000001 29.728 81.032 33.68C99.056 56.184 106.136 83.2000000000001 103 117.5200000000001C101.7840000000001 130.8240000000001 101.8160000000001 132.2400000000001 103.4800000000001 136.6C105.696 142.3840000000001 111.024 148.4400000000001 116.4320000000001 151.2960000000001C119.5520000000001 152.9520000000001 122.2480000000001 153.456 128.0000000000001 153.456C136.5200000000001 153.456 141.3200000000001 151.4960000000001 146.6400000000001 145.84C151.2000000000001 140.984 152.8560000000001 137.0800000000001 154.304 127.784C155.112 122.568 156.0320000000001 119.544 156.792 119.6C157.456 119.656 159.2880000000001 119.76 160.864 119.848L163.72 120L162.32 128.744C160.592 139.576 157.584 146.232 151.904 151.784C143.256 160.264 129.984 163.832 119 160.632M65.608 142.776C63.888 136.608 63.832 124.904 65.464 113.584C69.016 89.08 62.704 68.824 46.248 51.856L40.776 46.216L43.04 43.16L45.304 40.104L48.624 42.848C59.184 51.552 68.528 67.368 72.344 82.9999999999999C75.064 94.1599999999999 75.344 101.608 73.496 114C71.896 124.7599999999999 71.912 137 73.544 141.264C74.12 142.7599999999999 73.736 142.9919999999999 67.872 144.608C66.816 144.8959999999999 66.032 144.2559999999999 65.608 142.776M128 128C125 127.568 124.528 127.136 124.68 125L125.84 110.504C128.496 77.816 118.744 46.128 97.944 19.816L93.88 14.672L96.688 12.368C98.24 11.104 99.808 10.056 100.176 10.04C101.496 9.96 112.928 26.064 117.36 34.224C130.448 58.328 136.592 86.976 134.096 112.248C132.536 128.032 132.312 128.616 128 128M156.664 94.336C156.304 93.968 156 91.552 156 88.968C156 83.168 153.616 69.016 150.944 59C147.784 47.12 142.096 33.56 135.248 21.576L128.928 10.504L131.712 8.256C133.248 7.024 134.728 6.016 135 6.016C135.904 6.04 145.864 23.36 149.456 31.16C157.248 48.112 162.56 68.304 163.664 85.248L164.304 95H160.816C158.896 95 157.032 94.704 156.664 94.336" />
    <glyph glyph-name="triangle-right-17"
      unicode="&#xEA1A;"
      horiz-adv-x="256" d="M54.368 243.216A4 4 0 0 1 48 240V16A4 4 0 0 1 54.368 12.784L206.368 124.784A4 4 0 0 1 206.368 131.224L54.368 243.224z" />
    <glyph glyph-name="watch-circle"
      unicode="&#xEA1B;"
      horiz-adv-x="256" d="M64.288 220.872C60.464 192.28 59.92 189.52 57.696 187.12C53.856 182.984 48.384 174.512 45.176 167.712C30.376 136.4 34.016 100.4 54.752 72.84L60.28 65.504L64.352 34.752L68.416 4H187.584L191.648 34.76L195.72 65.52L201.016 72.5119999999999C225.992 105.456 225.928 151.872 200.872 183.7599999999999L195.752 190.28L191.664 221.144L187.584 252H68.448L64.288 220.872M183.424 222.456C184.976 210.608 186.008 200.672 185.72 200.384C185.432 200.096 183.016 201.424 180.352 203.32C173.16 208.44 162.208 213.64 152.288 216.656C144.392 219.056 141.928 219.32 128 219.32S111.608 219.048 103.712 216.656C93.792 213.64 82.832 208.44 75.648 203.32C72.984 201.416 70.568 200.096 70.28 200.384C69.992 200.672 71.024 210.608 72.576 222.456L75.392 244H180.608L183.424 222.456M149.864 209.032C203.288 193.808 227.8 134.472 200.696 86C195.248 76.256 181.096 61.824 171.416 56.128C149.864 43.464 123.704 40.792 100.48 48.896C87.44 53.44 78.8 58.976 68.496 69.4C45.344 92.816 38.176 124.408 48.928 155.728C58.816 184.568 83.48 205.024 116 211.376C121.896 212.528 142.624 211.088 149.864 209.032M124 148V124H172V132H132V172H124V148M78.68 50.744C93.4 41 108.736 36.6 128 36.6C147.416 36.6 162.92 41.104 177.896 51.072C181.976 53.792 185.528 55.808 185.784 55.552C186.04 55.296 184.976 45.392 183.424 33.544L180.608 12H75.408L72.688 32.752C71.192 44.16 69.976 54.096 69.984 54.832C70 56.496 69.984 56.512 78.68 50.752" />
    <glyph glyph-name="web-design"
      unicode="&#xEA1C;"
      horiz-adv-x="256" d="M195.504 249.4C192.88 248.44 188.208 244.672 181.984 238.472L172.464 229H4.992L5.248 117.248L5.496 5.504H250.504L250.752 117.248L251.008 229H223L222.976 231.752C222.92 238.856 215.608 247.904 208.28 249.936C203.352 251.304 200.384 251.184 195.496 249.4M209.76 236.48C212.344 233.504 212.656 229.12 210.576 225.2C209.784 223.712 192.464 205.856 172.08 185.52L135.032 148.536L128.008 155.496L120.984 162.464L157.744 199.336C177.968 219.608 195.856 237.08 197.504 238.152C201.44 240.704 206.712 239.984 209.76 236.472M58.776 202.76L59.048 187.008H16V219.04L37.248 218.768L58.504 218.496L58.776 202.752M146.496 203L130.52 187H69V202.336C69 210.768 69.296 217.968 69.664 218.336C70.032 218.696 91.064 219 116.408 219H162.48L146.504 203M240 203V187H213V176H240V16H16V176H119.448L112.752 169.248L106.056 162.496L120.208 148.256C127.992 140.416 134.624 134 134.944 134C135.264 134 154.416 153.056 177.512 176.344L219.496 218.68L229.752 218.84L240 219V203M79.456 140.68C66.136 135.544 61.384 125.768 60.304 101.272C59.768 89.216 59.872 87.992 61.496 87.368C63.968 86.416 88.504 88.728 94.144 90.432C96.704 91.208 100.176 92.56 101.864 93.432C115.976 100.728 118.624 122.072 106.88 133.904C99.856 140.976 87.896 143.928 79.456 140.672M94.928 129.536C101.76 126.008 105.264 118.152 103.152 111.112C100.872 103.512 94.144 100.112 78.248 98.52L71 97.8V102.712C71 114.968 74.472 125.824 79.4 128.976C83.136 131.376 90.84 131.648 94.928 129.536M48 53.496V48H208V59H48V53.496" />
  </font>
</defs>
</svg>
